애니코덱 AnyCodec 코덱 통합코덱 종합코덱 필수코덱 코덱팩 동영상 재생 영화 음악 드라마 애니메이션 비디오 오디오 최신 버전 무료 다운로드 DivX Xvid ffdshow AC3 DTS MPEG MPEG-4 h.264 x264 AVC AAC MediaInfo Codec CodecPack Movie Music Video Audio AVI ASF WMV WMA MKV FLV MPG MP4 MP3 OGG
StarCodec
Korean | English
질문&답변
일반 (146) 스타코덱 (605) QOTD (22) AutoOff (34)
 
김정만 님의 글입니다.   
File #1    2011_08_19_120643.jpg (46.5 KB)   Download : 41
제목   베가스 10 프로 불러오기 오류 ^^ 지원하지 않는 코덱
작성자   김정만

베가스 10 프로

불러오기 문제 ^^
지원하지 않는 코덱으로 나와서요..

통합코덱 설치했는데 뭐가 부족한 걸까요?


[사용중인 필터 목록]
(1) MP4 Source
(2) Video Codec/Transform
(3) Enhanced Video Renderer(Custom Present)
(4) Audio Codec/Transform
(5) DirectSound Audio Renderer

[비디오 정보]
비디오 코덱: mp4v - FFmpeg 디코더
입력 형식: mp4v(24 bits)
입력 크기: 1280 x 720(1.78:1)
출력 형식: YUY2(16 bits)
출력 크기: 1280 x 720(1.78:1)
프레임 레이트: 알 수 없음
BitRate: 알 수 없음

[오디오 정보]
오디오 코덱: MPEG Audio Layer 3(0x55) - 기본 디코더
샘플링 레이트: 48000 -> 48000 샘플/초
샘플당 비트수: 0 -> 16 비트/샘플
채널 수: 2 -> 2 채널
Bitrate: 128 kbps


D:\_Admin Folders\Videos\20110818_134502.mp4
  General
    Complete name : D:\_Admin Folders\Videos\20110818_134502.mp4
    Format : MPEG-4
    Format profile : Base Media
    Codec ID : isom
    File size : 89.1 MiB
    Duration : 3mn 1s
    Overall bit rate : 4 110 Kbps
    Movie name : 2] 20110817_[Super_Cup_2R]_Barca-R.Madrid.720p.x264-FBGZ_2nd.mkv
    Writing application : Lavf53.3.0
  Video #1
    ID : 1
    Format : MPEG-4 Visual
    Format settings, BVOP : No
    Format settings, QPel : No
    Format settings, GMC : No warppoints
    Format settings, Matrix : Default (H.263)
    Codec ID : 20
    Duration : 3mn 0s
    Bit rate mode : Variable
    Bit rate : 4 006 Kbps
    Width : 1 280 pixels
    Height : 720 pixels
    Display aspect ratio : 16:9
    Frame rate mode : Constant
    Frame rate : 29.411 fps
    Color space : YUV
    Chroma subsampling : 4:2:0
    Bit depth : 8 bits
    Scan type : Progressive
    Compression mode : Lossy
    Bits/(Pixel*Frame) : 0.148
    Stream size : 86.3 MiB (97%)
    Writing library : Lavc53.7.1
  Audio #2
    ID : 2
    Format : MPEG Audio
    Format version : Version 1
    Format profile : Layer 3
    Mode : Joint stereo
    Mode extension : MS Stereo
    Codec ID : 6B
    Duration : 3mn 1s
    Bit rate mode : Constant
    Bit rate : 128 Kbps
    Channel(s) : 2 channels
    Sampling rate : 48.0 KHz
    Compression mode : Lossy
    Stream size : 2.78 MiB (3%)
    Writing library : LAME

스타코덱 :: 베가스에서 인식하는 포맷에 제한이 있어서 그런 것으로 보입니다. 팟인코더나 VirtualDub 같은 인코딩 프로그램으로 베가스에서 인식 가능한 포맷으로 변환해서 열어 보세요.  [2011/08/23]  
가미카제 :: 저도 같은문제로 고민하고있었는데, 베가스 8.1버젼부터는 64비트가 지원되는데, 64비트는 외부코덱을 받지않느것 같습니다;;
코덱회사들이 64비트 전용코덱을 아직 완성판으로 만든게 별로 없기때문에, http://www.starcodec.com/bbs/view.php?id=notice&no=63 여기서 64비트시험판 다운받으시면 불러오기문제는 해결되었네요...
 [2011/10/15]  
스타코덱 :: 스타코덱 64비트의 최신 버전을 아래에서 다운로드하실 수 있습니다.
http://www.starcodec.com/ko/x64.php
 [2015/07/27]  
Name :
  
Pass :


Code :
 
 Prev    스타코덱 설치후 인터넷에서 영상이 안나옵니다 [1]
멈머머멍
  2011/08/27 
 Next    안녕하세요 [1]
이재원
  2011/08/17 

 


Copyright 1999-2019 Zeroboard / skin by StarCodec
스타코덱 이용 약관
제휴 문의 : starcodec@gmail.com
ⓒ 2014 Pintosoft